PPCGeeks Forums HTC Arrive HTC HD2 HTC Thunderbolt HTC Touch Pro 2 HTC Evo 4G HTC Evo 3D Samsung Galaxy S II Motorola Droid X Apple iPhone Blackberry
Go Back   PPCGeeks > Android > Android Samsung Devices > Samsung Galaxy Series

Notices



Reply
 
LinkBack Thread Tools Display Modes
  #1 (permalink)  
Old 06-30-2010, 02:06 AM
gTen's Avatar
"The Fuzzy One"
Offline
Pocket PC: PPC6800 & Touch Pro 2 & Epic 4G
Carrier: Sprint
Location: Internet
 
Join Date: Feb 2008
Posts: 7,855
Reputation: 9080
gTen is a trusted member of the communitygTen is a trusted member of the communitygTen is a trusted member of the communitygTen is a trusted member of the communitygTen is a trusted member of the communitygTen is a trusted member of the communitygTen is a trusted member of the communitygTen is a trusted member of the communitygTen is a trusted member of the communitygTen is a trusted member of the communitygTen is a trusted member of the community
Mentioned: 106 Post(s)
Tagged: 1 Thread(s)
Galaxy S Video Capabilities

I was googling around for some Galaxy S info and found a person did a test of its ability...it was able to play MKV container in H264@High 720p natively...


Quote:
Video
ID : 1
Format : AVC
Format/Info : Advanced Video Codec
Format profile : High@L3.1
Format settings, CABAC : Yes
Format settings, ReFrames : 3 frames
Muxing mode : Container profile=Unknown@3.1
Codec ID : V_MPEG4/ISO/AVC
Duration : 48mn 49s
Bit rate : 2 756 Kbps
Nominal bit rate : 2 811 Kbps
Width : 1 280 pixels
Height : 720 pixels
Display aspect ratio : 16:9
Frame rate : 23.976 fps
Resolution : 8 bits
Colorimetry : 4:2:0
Scan type : Progressive
Bits/(Pixel*Frame) : 0.125
Stream size : 962 MiB (86%)
Writing library : x264 core 84 r1400M 20fa784
Encoding settings : cabac=1 / ref=3 / deblock=1:0:0 / analyse=0x3:0x113 / me=hex / subme=6 / psy=1 / psy_rd=1.0:0.0 / mixed_ref=1 / me_range=16 / chroma_me=1 / trellis=1 / 8x8dct=1 / cqm=0 / deadzone=21,11 / fast_pskip=1 / chroma_qp_offset=-2 / threads=8 / sliced_threads=0 / nr=0 / decimate=1 / mbaff=0 / constrained_intra=0 / bframes=3 / b_pyramid=1 / b_adapt=2 / b_bias=0 / direct=1 / wpredb=1 / wpredp=0 / keyint=240 / keyint_min=24 / scenecut=40 / intra_refresh=0 / rc_lookahead=40 / rc=2pass / mbtree=1 / bitrate=2811 / ratetol=1.0 / qcomp=0.60 / qpmin=10 / qpmax=51 / qpstep=4 / cplxblur=20.0 / qblur=0.5 / ip_ratio=1.40 / aq=1:1.00 / pulldown=0 / nal_hrd=0

Audio
ID : 2
Format : AC-3
Format/Info : Audio Coding 3
Codec ID : A_AC3
Duration : 48mn 52s
Bit rate mode : Constant
Bit rate : 384 Kbps
Channel(s) : 6 channels
Channel positions : Front: L C R, Surround: L R, LFE
Sampling rate : 48.0 KHz
Stream size : 134 MiB (12%)
Title : English
Language : English
Quote:
Format : AVC
Format/Info : Advanced Video Codec
Format profile : High@L5.0
Format settings, CABAC : Yes
Format settings, ReFrames : 15 frames
Muxing mode : Container profile=Unknown@5.0
Codec ID : V_MPEG4/ISO/AVC
Duration : 24mn 13s
Bit rate : 1 716 Kbps
Nominal bit rate : 1 772 Kbps
Width : 1 280 pixels
Height : 720 pixels
Display aspect ratio : 16:9
Frame rate : 23.976 fps
Resolution : 8 bits
Colorimetry : 4:2:0
Scan type : Progressive
Bits/(Pixel*Frame) : 0.078
Stream size : 297 MiB (90%)
Writing library : x264 core 80 r1376M 3feaec2
Encoding settings : cabac=1 / ref=15 / deblock=1:0:0 / analyse=0x3:0x133 / me=umh / subme=8 / psy=1 / psy_rd=1.0:0.2 / mixed_ref=1 / me_range=20 / chroma_me=1 / trellis=2 / 8x8dct=1 / cqm=0 / deadzone=21,11 / fast_pskip=1 / chroma_qp_offset=-3 / threads=6 / sliced_threads=0 / nr=0 / decimate=1 / mbaff=0 / constrained_intra=0 / bframes=6 / b_pyramid=0 / b_adapt=2 / b_bias=0 / direct=1 / wpredb=1 / wpredp=2 / keyint=250 / keyint_min=25 / scenecut=40 / rc_lookahead=40 / rc=2pass / mbtree=1 / bitrate=1772 / ratetol=1.0 / qcomp=0.60 / qpmin=10 / qpmax=51 / qpstep=4 / cplxblur=20.0 / qblur=0.5 / ip_ratio=1.40 / aq=1:1.00
Language : English
Translation: This device is the king of video >.>

In comparison to an EVO: An EVO can only run H264 base....not to mention doesn't natively support the HUGE list of formats that the Galaxy S supports...and even if someone makes an App..hardware video decode > software video decode....

So yes you should be impressed :P
__________________
Earn some spare cash and get cash back at stores like NewEgg and more:

http://quickrewards.net/?r=!F94VXV35D5MV2

(My shameless referral link)
Reply With Quote
  #2 (permalink)  
Old 06-30-2010, 10:46 AM
jimmyz's Avatar
Regular 'Geeker
Offline
Pocket PC: touch pro2
Carrier: sprint
 
Join Date: Feb 2007
Posts: 302
Reputation: 440
jimmyz is becoming a PPCGeeks regularjimmyz is becoming a PPCGeeks regularjimmyz is becoming a PPCGeeks regularjimmyz is becoming a PPCGeeks regularjimmyz is becoming a PPCGeeks regular
Mentioned: 0 Post(s)
Tagged: 0 Thread(s)
Re: Galaxy S Video Capabilities

That is great news indeed- no recoding- but will it allow a file greater than 2gb to be read off of the SD card - for some reason I thought the EVO had a problem with this?
Reply With Quote
  #3 (permalink)  
Old 06-30-2010, 11:11 AM
gTen's Avatar
"The Fuzzy One"
Offline
Pocket PC: PPC6800 & Touch Pro 2 & Epic 4G
Carrier: Sprint
Threadstarter
Location: Internet
 
Join Date: Feb 2008
Posts: 7,855
Reputation: 9080
gTen is a trusted member of the communitygTen is a trusted member of the communitygTen is a trusted member of the communitygTen is a trusted member of the communitygTen is a trusted member of the communitygTen is a trusted member of the communitygTen is a trusted member of the communitygTen is a trusted member of the communitygTen is a trusted member of the communitygTen is a trusted member of the communitygTen is a trusted member of the community
Mentioned: 106 Post(s)
Tagged: 1 Thread(s)
Re: Galaxy S Video Capabilities

Quote:
Originally Posted by jimmyz View Post
That is great news indeed- no recoding- but will it allow a file greater than 2gb to be read off of the SD card - for some reason I thought the EVO had a problem with this?
Does it? what format was your SD card in, fat or fat32? It is also possible that those that the tested 2gb files were High profile instead of baseline thus wouldn't play on the EVO...

The Samsung Galaxy S though can even play 1080p without shutter(don't know if under high profile or not though)...
Reply With Quote
  #4 (permalink)  
Old 06-30-2010, 07:40 PM
jimmyz's Avatar
Regular 'Geeker
Offline
Pocket PC: touch pro2
Carrier: sprint
 
Join Date: Feb 2007
Posts: 302
Reputation: 440
jimmyz is becoming a PPCGeeks regularjimmyz is becoming a PPCGeeks regularjimmyz is becoming a PPCGeeks regularjimmyz is becoming a PPCGeeks regularjimmyz is becoming a PPCGeeks regular
Mentioned: 0 Post(s)
Tagged: 0 Thread(s)
Re: Galaxy S Video Capabilities

see here I actually don't have an EVO 4g so I'm not so sure if this is a real problem or just the way the SD card is formated (i.e. 2G limit of Fat32)?
Reply With Quote
Reply

  PPCGeeks > Android > Android Samsung Devices > Samsung Galaxy Series

Thread Tools
Display Modes

Posting Rules
You may not post new threads
You may not post replies
You may not post attachments
You may not edit your posts

BB code is On
Smilies are On
[IMG] code is On
HTML code is Off
Trackbacks are On
Pingbacks are On
Refbacks are On


All times are GMT -4. The time now is 08:48 AM.


Powered by vBulletin® ©2000 - 2019, Jelsoft Enterprises Ltd.
Content Relevant URLs by vBSEO 3.6.0
©2012 - PPCGeeks.com